<?xml version="1.0" standalone="no"?>
<!DOCTYPE svg PUBLIC "-//W3C//DTD SVG 1.1//EN" "http://www.w3.org/Graphics/SVG/1.1/DTD/svg11.dtd" >
<svg xmlns="http://www.w3.org/2000/svg">
<metadata>Generated by IcoMoon</metadata>
<defs>
<font id="icomoon" horiz-adv-x="1024">
<font-face units-per-em="1024" ascent="960" descent="-64" />
<missing-glyph horiz-adv-x="1024" />
<glyph unicode="&#x20;" horiz-adv-x="512" d="" />
<glyph unicode="&#xe900;" glyph-name="vk" d="M219.429 960c-121.187 0-219.429-98.241-219.429-219.429v-585.143c0-121.187 98.241-219.429 219.429-219.429h585.143c121.187 0 219.429 98.242 219.429 219.429v585.143c0 121.187-98.242 219.429-219.429 219.429h-585.143zM165.831 634.179h76.381c19.521 0 26.865-8.632 34.185-30.001 37.357-109.941 100.344-206.021 126.236-206.021 9.71 0 14.164 4.52 14.164 29.433v113.638c-1.752 32.347-12.935 46.336-21.222 56.699-5.116 6.399-9.125 11.414-9.125 18.515 0 8.632 7.3 17.738 19.434 17.738h120.031c16.187 0 21.822-8.744 21.822-28.367v-152.878c0-16.347 7.025-22.071 11.882-22.071 9.71 0 17.803 5.723 35.606 23.709 55.025 62.131 93.868 157.784 93.868 157.784 4.857 11.443 13.809 21.823 33.229 21.823h76.383c23.099 0 27.952-12.014 23.099-28.367-9.713-44.963-102.769-177.403-102.769-177.403-8.093-13.078-11.33-19.621 0-34.337 3.986-5.643 12.5-14.065 22.239-23.706 10.017-9.911 21.332-21.109 30.358-31.887 32.812-37.288 57.538-68.751 64.424-90.43 6.294-21.756-4.615-32.779-26.441-32.779h-76.379c-20.458 0-30.76 11.575-53.018 36.593-9.435 10.602-21.021 23.621-36.44 39.201-45.316 44.145-64.735 49.869-76.069 49.869-15.371 0-19.972-4.4-19.972-26.448v-69.204c0-18.988-6.005-30.011-54.557-30.011-80.922 0-169.848 49.635-232.966 141.195-94.676 134.075-120.572 235.451-120.572 255.89 0 11.443 4.365 21.823 26.188 21.823z" />
<glyph unicode="&#xe901;" glyph-name="done" d="M512 64c212.077 0 384 171.923 384 384 0 84.512-27.301 162.647-73.564 226.067l-326.244-362.492c-13.299-14.778-35.679-16.96-51.583-5.032l-161.303 120.977c-11.31 8.483-13.603 24.529-5.12 35.84s24.53 13.603 35.84 5.12l151.939-113.955 323.264 359.182c-69.892 72.904-168.26 118.292-277.229 118.292-212.077 0-384-171.923-384-384s171.923-384 384-384z" />
<glyph unicode="&#xe902;" glyph-name="exit" d="M403.342 243.77l80.214-80.211 284.444 284.442-284.444 284.444-80.214-80.213 146.774-147.342h-550.116v-113.778h550.116l-146.774-147.341zM910.221 960h-796.443c-63.147 0-113.778-51.2-113.778-113.778v-227.555h113.778v227.555h796.443v-796.443h-796.443v227.552h-113.778v-227.552c0-62.579 50.631-113.779 113.778-113.779h796.443c62.579 0 113.779 51.2 113.779 113.779v796.443c0 62.578-51.2 113.778-113.779 113.778z" />
<glyph unicode="&#xe903;" glyph-name="setting" d="M903.482 397.867c2.195 16 3.29 32.533 3.29 50.133 0 17.067-1.094 34.133-3.834 50.133l111.302 84.267c9.869 7.467 12.608 21.867 6.579 32.533l-105.274 177.067c-6.579 11.733-20.288 15.467-32.346 11.733l-131.046-51.2c-27.411 20.267-56.474 37.334-88.826 50.134l-19.738 135.466c-2.195 12.8-13.158 21.867-26.317 21.867h-210.546c-13.159 0-23.577-9.067-25.77-21.867l-19.738-135.466c-32.35-12.8-61.958-30.4-88.824-50.134l-131.043 51.2c-12.063 4.267-25.77 0-32.349-11.733l-104.725-177.067c-6.58-11.2-4.386-25.066 6.58-32.533l111.304-84.267c-2.742-16-4.934-33.6-4.934-50.133s1.096-34.133 3.838-50.133l-111.305-84.267c-9.869-7.469-12.611-21.869-6.58-32.531l105.273-177.069c6.58-11.731 20.287-15.469 32.349-11.731l131.043 51.2c27.415-20.269 56.475-37.338 88.824-50.138l19.739-135.462c2.741-12.8 13.159-21.869 26.318-21.869h210.546c13.159 0 24.122 9.069 25.767 21.869l19.744 135.462c32.346 12.8 61.958 29.869 88.819 50.138l131.046-51.2c12.064-4.269 25.766 0 32.352 11.731l105.267 177.069c6.579 11.731 3.84 25.062-6.579 32.531l-110.208 84.267zM512 256c-108.563 0-197.387 86.4-197.387 192s88.824 192 197.387 192c108.563 0 197.389-86.4 197.389-192s-88.826-192-197.389-192z" />
<glyph unicode="&#xe904;" glyph-name="favorite-choosed" d="M274.285 896c-151.286 0-274.285-126.527-274.285-278.911 0-53.167 23.714-99.217 45.714-132.483s44.571-54.62 44.571-54.62l421.715-429.987 26.285 26.726 395.43 403.261c0 0 90.285 80.913 90.285 187.102 0 152.384-123.002 278.911-274.285 278.911-125.572 0-206.429-76.845-237.715-109.24-31.286 32.394-112.143 109.24-237.715 109.24z" />
<glyph unicode="&#xe905;" glyph-name="go-cart" d="M754.5 560.849l-203.868 294.935c-8.843 12.589-23.738 18.883-38.633 18.883s-29.789-6.294-38.633-19.333l-203.869-294.485h-222.953c-25.6 0-46.545-20.232-46.545-44.96 0-4.047 0.465-8.092 1.862-12.139l118.226-416.778c10.705-37.763 46.545-65.638 89.367-65.638h605.092c42.82 0 78.66 27.876 89.833 65.638l118.226 416.778 1.394 12.139c0 24.728-20.946 44.96-46.546 44.96h-222.953zM372.363 560.849l139.637 197.822 139.634-197.822h-279.27zM512 201.17c-51.2 0-93.091 40.465-93.091 89.919 0 49.457 41.891 89.921 93.091 89.921s93.093-40.463 93.093-89.921c0-49.454-41.893-89.919-93.093-89.919z" />
<glyph unicode="&#xe906;" glyph-name="minus" d="M1024 374.857v146.286h-1024v-146.286h1024z" />
<glyph unicode="&#xe907;" glyph-name="plus" d="M426.667 362.667v-426.667h170.667v426.667h426.667v170.667h-426.667v426.667h-170.667v-426.667h-426.667v-170.667h426.667z" />
<glyph unicode="&#xe908;" glyph-name="delete" d="M170.667 49.778c0-62.578 51.2-113.778 113.778-113.778h455.111c62.578 0 113.778 51.2 113.778 113.778v682.667h-682.667v-682.667zM256 645.034h512v-623.7h-512v623.7zM711.111 903.111l-56.889 56.889h-284.444l-56.889-56.889h-199.111v-85.333h796.444v85.333h-199.111z" />
<glyph unicode="&#xe909;" glyph-name="bag" d="M94.041-64c-52.245 0-94.041 44.283-94.041 83.026v664.217h261.224v199.265c0 38.746 47.021 77.492 94.041 77.492h313.468c41.8 0 94.044-33.211 94.044-77.492v-199.265h261.222v-658.682c0-49.812-47.022-88.561-94.039-88.561h-835.92zM78.367 19.026h862.039v581.19h-182.856v-94.097h-78.367v94.097h-339.592v-94.097h-78.367v94.097h-182.857v-581.19zM339.592 683.243h339.592v193.73h-339.592v-193.73z" />
<glyph unicode="&#xe90a;" glyph-name="Group-2" d="M499.853 955.348c-4.41-2.4-30.065-19.003-56.924-36.805l-48.707-32.005-10.424 0.8c-40.889 3.4-119.46 6.601-123.669 5.001-2.606-1-6.815-3.801-9.020-6.401-2.406-2.6-17.037-30.004-32.471-60.809l-28.061-56.008-57.125-28.605c-62.136-31.004-67.748-35.005-67.347-48.006 0-4.001 1.603-34.205 3.407-67.21l3.407-59.609-35.678-54.207c-20.244-30.605-36.279-57.009-36.881-60.61-1.403-8.201-0.601-9.601 38.685-69.21l33.473-50.607-3.407-66.609c-3.407-61.809-3.407-66.811-0.2-71.611 4.41-6.801 8.819-9.401 68.75-39.405l52.916-26.405 28.061-56.008c28.262-56.408 32.872-64.009 41.29-67.21 3.808-1.4 77.971 1.6 121.867 5l12.226 1.001 51.714-34.006c57.727-38.005 60.933-39.805 67.748-39.805 3.007 0 26.659 14.202 60.734 36.806l55.921 36.604 65.946-3.6c63.137-3.6 66.143-3.6 72.157-0.2 5.212 2.8 11.425 13.801 36.28 62.408l30.067 59.009 58.126 29.205c31.869 16.202 59.53 31.405 61.535 33.804 4.61 5.6 4.61 17.403 0.6 87.813l-3.206 52.807 36.28 54.408c31.869 47.808 36.078 55.209 36.078 62.409 0 8.801-2.004 12.403-46.502 79.812l-25.256 38.206 3.609 64.809c3.607 61.009 3.607 65.209 0.401 71.811-3.007 6.402-9.020 9.802-62.536 37.207l-59.129 30.003-30.067 58.809c-24.454 47.807-31.269 59.609-36.078 62.409-5.814 3.201-9.421 3.201-72.158-0.2l-65.944-3.4-52.314 34.405c-28.864 18.803-54.32 35.205-56.724 36.605-6.215 3.401-12.629 2.6-21.448-2.6zM566.8 877.337c46.903-30.605 51.512-33.205 59.93-33.205 5.012 0 33.273 1.4 63.138 3.201 29.666 1.6 54.72 2.4 55.721 1.4 0.802-0.8 13.43-25.004 28.063-53.608 14.631-28.604 27.86-53.608 29.664-55.807 1.804-2 27.66-15.803 57.325-30.605 29.865-14.802 54.32-27.203 54.519-27.404 0.401-0.2-1.001-28.204-2.805-62.008-2.405-43.006-2.805-63.010-1.404-66.809 1.202-3.001 16.838-27.606 34.677-54.809l32.671-49.608-68.55-104.414v-12.403c0-6.601 1.404-35.605 3.007-64.009 1.804-28.404 2.805-52.007 2.606-52.208-0.401-0.399-24.855-12.802-54.72-27.604-29.664-14.802-55.52-28.603-57.325-30.603-1.804-2.202-15.233-27.604-29.865-56.61-14.832-28.803-27.862-53.006-29.263-53.606-1.404-0.401-26.659 0.6-56.525 2.2-29.664 1.801-57.526 3.201-61.934 3.201-7.216 0-14.431-4.202-58.529-33.005-27.862-18.404-51.714-33.605-53.116-34.205-1.404-0.6-26.259 14.601-55.121 33.404l-52.715 34.606-63.138-3.4c-34.876-2-63.539-3.201-63.74-3.001-0.401 0.401-12.426 24.405-27.058 53.608-14.633 29.205-28.061 54.607-29.865 56.809-1.804 2-27.459 15.801-57.325 30.603-29.665 14.802-54.519 27.404-54.92 27.805-0.401 0.399 0.802 28.204 2.606 61.809 2.004 33.605 2.806 62.808 2.205 65.209-0.802 2.2-16.236 26.603-34.275 54.007s-32.872 50.607-32.872 51.807c0 1.001 14.632 24.203 32.671 51.408 18.040 27.203 33.273 51.407 34.275 53.606 0.802 2.202 0 31.606-2.004 65.61-1.804 33.804-3.007 61.809-2.606 62.21 0.401 0.399 25.456 13.001 55.521 28.003 45.098 22.604 55.522 28.605 58.728 33.806 2.006 3.6 15.235 29.004 29.064 56.408 14.031 27.604 25.656 50.207 25.856 50.607 0.403 0.4 24.855-0.8 54.72-2.4 29.664-1.8 58.327-3.201 63.94-3.201 9.421 0 12.027 1.4 60.933 33.805 28.061 18.803 52.314 33.605 53.917 33.405 1.605-0.4 25.858-15.602 53.919-34.005zM455.262 775.631c-127.433-22.946-232.376-119.529-263.818-242.815-10.411-40.469-13.534-92.829-8.121-129.753 20.614-140.599 123.268-250.534 261.32-280.364 29.775-6.467 85.786-7.927 115.562-3.337 51.64 8.344 93.285 24.407 135.761 52.777 158.249 105.345 195.104 322.293 80.79 475.201-48.515 64.876-117.437 108.683-198.852 126.206-30.609 6.675-91.201 7.719-122.642 2.085zM550.834 732.868c122.227-17.314 216.968-106.598 242.787-228.631 6.455-30.874 6.455-81.357 0-112.23-18.739-88.239-72.669-159.582-151.586-200.051-159.913-81.982-355.434 2.92-405.615 175.853-9.163 32.125-12.078 54.863-10.828 89.701 1.665 43.806 9.786 77.602 27.486 114.732 54.138 112.855 175.323 178.15 297.756 160.627zM623.111 530.803c-5.025-4.318-41.202-34.731-80.192-67.663l-70.746-59.747-39.795 36.172c-36.981 33.472-40.397 36.172-48.236 37.071-7.837 0.9-9.244 0.36-15.676-5.397-8.040-7.2-9.246-15.296-3.416-23.035 1.808-2.699 24.318-23.755 49.641-46.97 29.947-27.533 48.036-42.65 51.251-43.19 12.058-1.979 16.681 1.261 94.662 67.125 92.051 77.561 99.688 84.22 101.295 90.338 3.416 12.057-6.231 22.855-20.499 22.855-7.436 0-10.049-1.080-18.289-7.558z" />
<glyph unicode="&#xe90b;" glyph-name="Group-1" d="M588.119 825.009c-54.738-6.619-134.678-33.86-142.57-48.117-4.328-8.401-2.8-18.076 3.818-24.441 7.638-7.892 16.040-7.892 31.315-0.255 28.768 14.512 75.867 27.75 112.018 31.569l18.331 2.037v-23.677c0-21.895 0.509-24.441 6.365-30.042 3.818-4.073 9.164-6.365 14.002-6.365s10.184 2.291 14.002 6.365c5.856 5.601 6.365 8.147 6.365 30.042v23.677l18.585-2.037c37.425-3.819 82.742-17.057 115.074-33.097 19.349-9.929 53.209-31.824 65.684-42.771l9.675-8.401-16.803-17.058c-19.095-19.857-21.385-28.513-10.184-39.461 10.946-11.202 19.603-8.91 39.461 10.439l17.312 16.549 9.675-11.712c36.916-43.789 65.684-110.746 73.068-170.828l3.309-25.205-25.205-1.273c-22.657-1.018-25.713-1.781-30.040-7.383-6.62-8.146-6.111-19.603 1.527-26.986 5.601-5.855 8.147-6.365 30.042-6.365h23.677l-2.038-18.33c-3.818-37.679-17.056-82.996-33.096-115.329-9.928-19.349-31.824-53.209-42.771-65.684l-8.401-9.675-17.058 16.804c-19.858 19.094-28.515 21.385-39.461 10.184-11.202-10.948-8.912-19.604 10.437-39.463l16.549-17.312-15.275-12.475c-45.317-36.661-115.329-65.429-173.884-71.539l-19.858-2.038v23.677c0 21.896-0.509 24.441-6.365 30.042-8.146 8.401-19.858 8.401-28.004 0-5.856-5.601-6.365-8.146-6.365-30.042v-24.186l-11.966 1.273c-34.878 3.056-79.94 15.275-112.529 30.296-22.403 10.184-29.022 10.693-37.17 2.291-7.637-7.383-8.401-18.585-1.782-26.477 5.347-6.619 44.299-23.677 73.832-32.333 39.206-11.202 64.92-14.766 109.982-14.766 62.884 0 109.219 10.439 165.483 36.916 43.535 20.622 77.14 44.299 109.219 76.377 149.952 150.716 148.17 397.923-3.82 547.876-55.246 54.737-126.020 90.888-204.689 104.891-27.241 4.837-84.269 6.874-109.473 3.819zM250.77 698.978c-4.074-3.819-6.364-9.166-6.364-14.002s2.29-10.184 6.364-14.002l6.11-6.365h234.732l6.11 6.365c4.074 3.818 6.365 9.166 6.365 14.002s-2.291 10.184-6.365 14.002l-6.11 6.365h-234.732l-6.11-6.365zM726.611 564.816l-54.227-53.718-13.238 4.074c-39.716 12.984-83.76-3.563-100.309-37.679-9.675-19.603-11.202-43.026-4.328-63.647l5.092-15.022-9.93-10.946c-11.964-12.986-13.493-24.696-4.072-33.351 9.419-8.912 20.367-7.383 33.605 4.837l11.457 10.693 12.984-4.328c39.206-12.475 82.741 3.818 100.054 37.17 9.928 19.858 11.711 43.28 4.583 64.411l-5.347 15.275 53.463 53.718c47.355 47.609 53.209 54.481 53.209 61.611 0 5.601-2.291 10.437-6.364 14.511s-8.912 6.365-14.513 6.365c-7.128 0-14.002-5.856-62.12-53.974zM651.507 474.183c14.002-6.874 19.349-16.293 19.349-33.606s-5.347-26.731-19.349-33.605c-17.821-9.166-43.026-3.82-54.227 11.455-4.074 5.347-5.346 11.203-5.346 22.15s1.272 16.804 5.346 22.15c7.129 9.675 20.367 16.040 34.116 16.040 6.364 0 15.275-2.038 20.112-4.583zM128.568 576.775c-4.073-3.818-6.365-9.164-6.365-14.002 0-4.837 2.291-10.184 6.365-14.002l6.11-6.365h161.665c114.819 0 163.445 0.764 168.028 2.8 7.383 3.565 12.984 15.022 10.439 22.659-1.018 2.8-4.074 7.638-7.129 10.184-5.092 4.838-9.673 5.092-169.046 5.092h-163.956l-6.11-6.365zM6.365 454.573c-4.073-3.82-6.365-9.166-6.365-14.002 0-4.838 2.291-10.184 6.365-14.004l6.11-6.364h423.127l6.11 6.364c8.403 8.147 8.403 19.858 0 28.006l-6.11 6.364h-423.127l-6.11-6.364zM128.568 332.37c-4.073-3.818-6.365-9.166-6.365-14.002 0-4.838 2.291-10.184 6.365-14.002l6.11-6.365h161.665c114.819 0 163.445 0.763 168.028 2.8 7.383 3.565 12.984 15.020 10.439 22.659-1.018 2.8-4.074 7.637-7.129 10.184-5.092 4.837-9.673 5.092-169.046 5.092h-163.956l-6.11-6.365zM250.77 210.166c-4.074-3.818-6.364-9.166-6.364-14.002s2.29-10.184 6.364-14.002l6.11-6.365h234.732l6.11 6.365c4.074 3.818 6.365 9.166 6.365 14.002s-2.291 10.184-6.365 14.002l-6.11 6.365h-234.732l-6.11-6.365z" />
<glyph unicode="&#xe90c;" glyph-name="Group" d="M311.27 957.792c-12.266-2.601-32.373-16.809-40.216-28.414-13.272-19.41-16.287-47.024-7.239-67.434l4.224-9.205-80.029-79.641c-62.134-61.831-80.835-79.44-83.65-78.44-2.212 0.6-7.842 2.602-12.869 4.401-12.668 4.804-37.803 3.202-50.672-2.801-14.88-7.203-26.744-18.809-34.184-33.816-6.032-12.006-6.636-15.009-6.636-31.417 0-15.609 0.804-19.41 5.63-29.414 7.239-14.608 20.51-27.814 34.586-34.619l11.059-5.202v-225.315l-12.869-6.404c-15.081-7.404-25.738-18.209-33.178-34.017-4.424-9.406-5.228-14.007-5.228-29.215 0-15.408 0.804-19.61 5.429-29.416 10.657-22.811 33.781-38.819 59.117-41.020 11.461-0.801 16.488-0.199 28.352 3.802l14.478 4.804 161.266-160.483-4.626-9.805c-7.036-15.208-6.634-41.821 0.805-57.43 22.722-48.424 88.073-55.627 121.452-13.007 4.023 5.003 8.446 12.608 9.854 16.81l2.613 7.603 227.019 1 3.418-8.603c10.858-28.416 42.227-47.625 72.993-44.824 45.444 4.202 76.008 50.827 61.127 92.447-2.412 6.603-4.624 13.007-4.826 14.407s35.189 38.42 78.621 82.443c72.993 73.838 79.428 80.040 83.449 78.040 6.837-3.802 23.929-7.804 32.775-7.804 10.458 0 27.549 5.003 36.798 11.006 15.483 9.805 24.331 21.411 30.363 39.020 11.461 33.616-6.032 72.636-38.81 86.043l-11.461 4.802v225.115l12.065 5.403c27.348 12.206 44.239 41.020 41.423 70.636-2.211 25.212-17.896 47.424-41.020 58.428-14.276 6.605-37.802 7.605-54.491 1.801l-13.071-4.202-158.25 157.481 4.425 9.805c16.891 38.019-5.431 84.243-46.25 95.849-14.477 4.202-25.335 4.002-40.216-0.6-21.314-6.603-40.216-24.212-46.449-43.422l-2.412-6.804-227.22 1.001-2.412 7.204c-11.061 32.016-49.265 51.426-85.058 43.422zM346.459 921.974c26.745-13.007 26.946-52.227 0.201-65.834-22.923-11.606-51.275 3.202-53.689 28.014-2.814 30.416 25.94 51.026 53.488 37.819zM712.424 921.974c24.13-11.806 27.145-46.424 5.228-63.032-6.636-5.203-9.048-5.803-21.917-5.803-12.668 0-15.283 0.6-21.716 5.603-10.86 8.204-16.088 19.61-15.082 32.617 2.213 27.014 29.157 42.222 53.488 30.616zM630.182 861.343c6.435-15.808 18.097-27.814 33.982-35.618 12.266-6.003 14.881-6.603 32.576-6.603 15.483 0.2 20.71 1 27.346 4.402l8.044 4.402 159.656-158.881-4.423-9.006c-3.621-7.402-4.423-12.606-4.624-28.014 0-16.408 0.602-20.411 5.228-30.014 8.645-18.010 24.731-32.016 44.639-38.621 3.216-1.2 3.418-8.404 3.418-114.057v-112.658l-7.439-2.6c-16.891-6.003-31.369-19.010-40.216-36.219-5.029-9.805-5.63-13.007-5.63-30.016 0-15.408 0.803-20.811 4.423-28.815l4.624-9.605-74.198-75.438c-40.819-41.421-76.411-77.44-79.426-80.040l-5.029-4.804-14.276 4.603c-36.396 11.606-74.6-5.202-88.677-39.219l-4.624-10.807h-225.611l-5.63 12.208c-7.038 15.408-20.109 28.414-34.988 35.418-9.852 4.603-14.076 5.403-30.565 5.403-15.483-0.201-20.71-1.002-27.346-4.403l-8.044-4.401-161.868 161.081 4.625 9.807c7.038 15.007 6.636 41.821-0.603 57.229-3.016 6.203-8.646 14.808-12.668 19.209-7.239 8.004-28.151 20.61-34.183 20.61-3.016 0-3.217 10.406-3.217 112.858v112.858l7.641 2.403c20.711 6.603 41.623 28.815 46.651 50.225 3.217 13.407 1.609 32.616-3.821 44.822l-4.424 9.805 160.060 159.282 9.048-4.402c7.44-3.602 12.668-4.402 28.151-4.602 16.689 0 20.511 0.6 30.565 5.403 14.879 6.804 27.95 20.010 35.189 35.418l5.63 12.206h225.41l4.624-10.805zM92.496 661.241c20.309-15.408 19.505-46.023-1.407-60.431-7.038-4.802-10.255-5.804-20.711-5.804-10.054 0-13.874 1.002-20.51 5.403-23.526 15.408-21.516 51.026 3.619 64.232 10.657 5.603 29.358 4.003 39.009-3.401zM970.006 664.042c25.739-13.007 26.946-47.824 2.414-64.033-10.858-7.203-28.754-7.003-40.015 0.6-19.103 12.407-22.32 39.621-6.837 56.23 10.858 11.606 29.961 14.607 44.438 7.203zM92.496 297.055c27.146-20.61 14.88-63.632-19.103-66.834-26.945-2.602-47.254 24.613-37.401 50.427 6.233 16.207 18.499 23.812 36.596 22.811 9.853-0.602 13.874-2.002 19.907-6.404zM970.006 299.856c32.174-16.208 23.325-65.434-12.667-69.436-24.331-2.801-42.831 15.009-41.020 39.821 1.006 13.208 8.042 24.212 19.906 30.016 9.251 4.802 24.13 4.603 33.781-0.4zM346.459 39.923c9.251-4.603 13.473-9.205 17.494-18.809 6.636-16.009 1.207-34.619-13.473-44.623-7.036-4.804-10.255-5.804-20.71-5.804-10.255 0-13.875 1-20.912 5.603-11.461 7.605-17.092 20.010-15.887 34.818 2.213 25.214 30.565 40.421 53.488 28.815zM717.853 36.923c22.118-16.808 18.701-51.226-6.032-63.232-31.369-15.009-65.15 18.809-49.465 49.626 7.64 14.806 18.498 20.809 35.589 20.010 9.854-0.602 13.875-2.002 19.908-6.404zM398.113 658.811c-83.728-27.849-114.176-38.702-116.579-41.977-3.405-4.096-3.606-15.153-3.606-167.907v-163.401l4.608-5.118c3.604-4.301 24.837-12.081 119.583-43.205 63.298-20.886 116.178-37.881 117.381-37.881 1.403 0 54.082 16.995 117.38 37.881 94.146 31.124 115.579 38.905 119.384 43.205l4.407 5.118v163.401c0 152.753-0.199 163.811-3.405 167.907-2.805 3.275-33.051 14.128-118.382 42.181-63.099 20.886-117.581 37.881-121.187 37.676s-57.289-17.2-119.585-37.881zM603.229 634.443c46.272-15.152 84.33-27.847 84.529-28.257 0.4-0.41-37.456-13.105-83.928-28.462l-84.531-28.054-84.529 28.054c-46.471 15.356-84.33 28.052-83.93 28.462 0.602 0.614 165.253 55.49 167.457 55.695 0.602 0.205 38.861-12.284 84.932-27.438zM432.567 542.095l67.705-22.32v-138.624c0-76.376-0.803-138.829-1.604-138.829s-43.067 13.718-93.544 30.51l-92.142 30.305-0.6 139.443-0.4 139.238 26.439-8.6c14.623-4.913 57.088-18.838 94.146-31.124zM725.217 303.751c-1.002-0.819-43.067-15.153-93.744-31.739-50.679-16.587-93.345-30.715-94.546-31.329-2.002-0.614-2.604 27.847-2.604 138.419v139.443l31.649 10.238c17.227 5.734 60.292 19.862 95.547 31.534l64.099 21.296 0.602-138.214c0.199-76.173-0.201-139.034-1.002-139.648z" />
<glyph unicode="&#xe90e;" glyph-name="arrow-l" d="M352.421 819.143l-102.993-103.131 334.543-335.726-334.543-335.726 102.993-103.131 438.265 438.857-438.265 438.857z" />
<glyph unicode="&#xe90f;" glyph-name="catalog-row" d="M56.889 354.54c-15.709 0-28.444 12.735-28.444 28.444v130.032c0 15.709 12.735 28.444 28.444 28.444h127.163c15.71 0 28.444-12.735 28.444-28.444v-130.032c0-15.709-12.735-28.444-28.444-28.444h-127.163zM56.889 49.778c-15.709 0-28.444 12.737-28.444 28.444v130.031c0 15.713 12.735 28.444 28.444 28.444h127.163c15.71 0 28.444-12.732 28.444-28.444v-130.031c0-15.707-12.735-28.444-28.444-28.444h-127.163zM56.889 659.302c-15.709 0-28.444 12.735-28.444 28.444v130.032c0 15.709 12.735 28.444 28.444 28.444h127.163c15.71 0 28.444-12.735 28.444-28.444v-130.032c0-15.71-12.735-28.444-28.444-28.444h-127.163zM358.065 354.54c-15.709 0-28.444 12.735-28.444 28.444v130.032c0 15.709 12.735 28.444 28.444 28.444h609.046c15.707 0 28.444-12.735 28.444-28.444v-130.032c0-15.709-12.737-28.444-28.444-28.444h-609.046zM358.065 49.778c-15.709 0-28.444 12.737-28.444 28.444v130.031c0 15.713 12.735 28.444 28.444 28.444h609.046c15.707 0 28.444-12.732 28.444-28.444v-130.031c0-15.707-12.737-28.444-28.444-28.444h-609.046zM329.621 817.778c0 15.709 12.735 28.444 28.444 28.444h609.046c15.707 0 28.444-12.735 28.444-28.444v-130.032c0-15.71-12.737-28.444-28.444-28.444h-609.046c-15.709 0-28.444 12.735-28.444 28.444v130.032z" />
<glyph unicode="&#xe910;" glyph-name="catalog-table" d="M0 528.738c0-28.277 22.923-51.2 51.2-51.2h198.776c28.277 0 51.2 22.923 51.2 51.2v252.062c0 28.277-22.923 51.2-51.2 51.2h-198.776c-28.277 0-51.2-22.923-51.2-51.2v-252.062zM0 115.2c0-28.278 22.923-51.2 51.2-51.2h198.776c28.277 0 51.2 22.922 51.2 51.2v252.062c0 28.277-22.923 51.2-51.2 51.2h-198.776c-28.277 0-51.2-22.923-51.2-51.2v-252.062zM361.412 115.2c0-28.278 22.923-51.2 51.2-51.2h198.778c28.278 0 51.2 22.922 51.2 51.2v252.062c0 28.277-22.922 51.2-51.2 51.2h-198.778c-28.277 0-51.2-22.923-51.2-51.2v-252.062zM722.821 115.2c0-28.278 22.927-51.2 51.2-51.2h198.779c28.278 0 51.2 22.922 51.2 51.2v252.062c0 28.277-22.922 51.2-51.2 51.2h-198.779c-28.273 0-51.2-22.923-51.2-51.2v-252.062zM361.412 528.738c0-28.277 22.923-51.2 51.2-51.2h198.778c28.278 0 51.2 22.923 51.2 51.2v252.062c0 28.277-22.922 51.2-51.2 51.2h-198.778c-28.277 0-51.2-22.923-51.2-51.2v-252.062zM774.021 832c-28.273 0-51.2-22.923-51.2-51.2v-252.062c0-28.277 22.927-51.2 51.2-51.2h198.779c28.278 0 51.2 22.923 51.2 51.2v252.062c0 28.277-22.922 51.2-51.2 51.2h-198.779z" />
<glyph unicode="&#xe911;" glyph-name="change" d="M865.221 232.911c0-82.97-67.26-150.23-150.23-150.23s-150.23 67.26-150.23 150.23c0 82.97 67.26 150.23 150.23 150.23s150.23-67.26 150.23-150.23zM158.779 681.753c0 82.97 67.26 150.23 150.23 150.23s150.23-67.26 150.23-150.23c0-82.97-67.26-150.23-150.23-150.23s-150.23 67.26-150.23 150.23z" />
<glyph unicode="&#xe912;" glyph-name="sticker" d="M512 960l96.307-121.262 141.632 62.616 28.922-152.129 154.506-10.375-45.085-148.145 131.984-80.989-108.768-110.224 79.232-133.050-147.536-47.050 8.326-154.63-152.499 26.902-64.49-140.787-122.531 94.691-122.531-94.691-64.49 140.787-152.498-26.902 8.324 154.63-147.533 47.050 79.23 133.050-108.769 110.224 131.987 80.989-45.087 148.145 154.506 10.375 28.924 152.129 141.631-62.616 96.307 121.262zM406.426 288c-6.272 0-9.408 2.986-9.408 8.96 0 1.792 0.598 3.434 1.792 4.928l221.312 291.2c2.090 2.688 4.032 4.778 5.824 6.272 2.090 1.494 5.078 2.24 8.96 2.24h14.784c6.272 0 9.408-2.986 9.408-8.96 0-1.792-0.598-3.434-1.792-4.928l-220.864-291.2c-2.090-2.688-4.182-4.778-6.272-6.272-1.792-1.494-4.778-2.24-8.96-2.24h-14.784zM611.61 285.312c-19.712 0-35.094 5.526-46.144 16.576s-17.174 25.536-18.368 43.456c-0.298 7.766-0.448 14.336-0.448 19.712 0 5.674 0.15 12.694 0.448 21.056 0.896 17.92 6.72 32.406 17.472 43.456 10.752 11.35 26.432 17.024 47.040 17.024 20.906 0 36.586-5.674 47.040-17.024 10.752-11.050 16.726-25.536 17.92-43.456 0.598-8.362 0.896-15.382 0.896-21.056 0-5.376-0.298-11.946-0.896-19.712-1.194-17.92-7.466-32.406-18.816-43.456-11.050-11.050-26.432-16.576-46.144-16.576zM611.61 314.88c7.766 0 13.888 1.642 18.368 4.928 4.778 3.286 8.214 7.318 10.304 12.096 2.090 5.078 3.286 10.154 3.584 15.232 0.598 8.064 0.896 14.336 0.896 18.816 0 4.778-0.298 10.902-0.896 18.368-0.298 8.064-2.838 15.53-7.616 22.4s-12.992 10.304-24.64 10.304c-11.35 0-19.414-3.434-24.192-10.304-4.48-6.87-7.018-14.336-7.616-22.4-0.298-7.466-0.448-13.59-0.448-18.368 0-4.48 0.15-10.752 0.448-18.816 0.598-5.078 1.792-10.154 3.584-15.232 2.090-4.778 5.376-8.81 9.856-12.096 4.778-3.286 10.902-4.928 18.368-4.928zM444.058 444.352c-19.712 0-35.094 5.226-46.144 15.68s-17.174 24.64-18.368 42.56c-0.298 7.766-0.448 14.336-0.448 19.712 0 5.674 0.15 12.694 0.448 21.056 0.896 17.92 6.72 32.406 17.472 43.456 10.752 11.35 26.432 17.024 47.040 17.024 20.906 0 36.586-5.674 47.040-17.024 10.752-11.050 16.576-25.536 17.472-43.456 0.598-8.362 0.896-15.382 0.896-21.056 0-5.376-0.298-11.946-0.896-19.712-0.896-17.92-7.018-32.106-18.368-42.56-11.050-10.454-26.432-15.68-46.144-15.68zM444.058 472.128c7.766 0 13.888 1.642 18.368 4.928 4.778 3.286 8.214 7.318 10.304 12.096 2.090 5.078 3.286 10.154 3.584 15.232 0.598 8.064 0.896 14.336 0.896 18.816 0 4.778-0.298 10.902-0.896 18.368-0.298 8.064-2.986 15.53-8.064 22.4-4.778 6.87-12.842 10.304-24.192 10.304s-19.414-3.434-24.192-10.304c-4.48-6.87-7.018-14.336-7.616-22.4-0.298-7.466-0.448-13.59-0.448-18.368 0-4.48 0.15-10.752 0.448-18.816 0.598-5.078 1.792-10.154 3.584-15.232 2.090-4.778 5.376-8.81 9.856-12.096s10.602-4.928 18.368-4.928z" />
<glyph unicode="&#xe913;" glyph-name="burger" horiz-adv-x="1536" d="M0 960h1536v-133.565h-1536v133.565zM0 514.783h1536v-133.565h-1536v133.565zM0 69.568h722.822v-133.568h-722.822v133.568z" />
<glyph unicode="&#xe914;" glyph-name="search" d="M728.94 295.031h-30.265l-50.432 40.129 10.086 10.035c55.478 60.199 85.737 140.466 85.737 225.749 0 195.65-161.388 351.166-358.076 351.166-196.69 0-347.991-160.533-347.991-351.166 0-190.631 161.387-351.166 353.034-351.166 80.693 0 161.387 30.1 226.95 85.282l5.046 5.018 45.386-45.147v-30.1l262.258-260.87 55.472 55.182-257.206 265.887zM391.034 290.014c-151.3 0-277.383 125.415-277.383 280.931s126.083 275.916 277.383 275.916c151.301 0 282.428-125.416 282.428-275.916s-126.085-280.931-282.428-280.931z" />
<glyph unicode="&#xe915;" glyph-name="share" d="M796.444 242.148c-36.029 0-68.267-14.994-92.918-38.484l-338.016 207.408c2.371 11.495 4.267 22.99 4.267 34.984s-1.896 23.49-4.267 34.985l334.223 205.408c25.6-24.989 59.259-40.482 96.711-40.482 78.697 0 142.223 66.97 142.223 149.933s-63.526 149.933-142.223 149.933-142.222-66.97-142.222-149.933c0-11.995 1.896-23.49 4.267-34.985l-334.223-205.408c-25.6 24.989-59.259 40.482-96.711 40.482-78.697 0-142.223-66.97-142.223-149.933s63.526-149.932 142.223-149.932c37.452 0 71.111 15.493 96.711 40.481l337.541-207.907c-2.371-10.495-3.793-21.49-3.793-32.485 0-80.461 62.104-145.937 138.429-145.937s138.43 65.476 138.43 145.937c0 80.463-62.104 145.935-138.43 145.935z" />
<glyph unicode="&#xe916;" glyph-name="done-color" d="M512 960c-282.624 0-512-229.376-512-512s229.376-512 512-512c282.624 0 512 229.376 512 512s-229.376 512-512 512zM409.6 192l-256 256 72.192 72.192 183.808-183.296 388.608 388.608 72.192-72.704-460.8-460.8z" />
<glyph unicode="&#xe918;" glyph-name="place" d="M213.2 576.033c0 165.12 133.547 298.666 298.667 298.666s298.665-133.546 298.665-298.666c0-177.917-188.585-423.252-265.81-516.692-17.070-20.48-48.215-20.48-65.282 0-77.653 93.44-266.24 338.775-266.24 516.692zM405.198 576.036c0-58.88 47.787-106.666 106.667-106.666 58.882 0 106.666 47.786 106.666 106.666s-47.785 106.667-106.666 106.667c-58.88 0-106.667-47.787-106.667-106.667z" />
<glyph unicode="&#xe919;" glyph-name="phone" d="M282.454 499.626c61.44-120.746 160.426-219.306 281.171-281.171l93.87 93.865c11.52 11.52 28.585 15.36 43.52 10.24 47.785-15.785 99.41-24.32 152.32-24.32 23.465 0 42.665-19.2 42.665-42.665v-148.91c0-23.465-19.2-42.665-42.665-42.665-400.642 0-725.335 324.695-725.335 725.334 0 23.466 19.2 42.666 42.666 42.666h149.334c23.466 0 42.666-19.2 42.666-42.666 0-53.334 8.534-104.534 24.32-152.32 4.694-14.934 1.28-31.574-10.666-43.52l-93.866-93.867z" />
<glyph unicode="&#xe91a;" glyph-name="facebook" d="M738.743 960h-453.486c-157.257 0-285.257-128-285.257-285.257v-453.486c0-157.257 128-285.257 285.257-285.257h453.486c157.257 0 285.257 128 285.257 285.257v453.486c0 157.257-128 285.257-285.257 285.257zM661.943 619.886h-58.514c-21.943 0-29.257-10.971-29.257-32.914v-51.2h84.114l-7.314-87.771h-76.8v-299.886h-128v299.886h-84.114v84.114h84.114v98.743c0 76.8 40.229 113.371 128 113.371h84.114v-124.343h3.657z" />
<glyph unicode="&#xe91b;" glyph-name="instagram" d="M285.257 960c-157.257 0-285.257-128-285.257-285.257v-453.486c0-157.257 128-285.257 285.257-285.257h453.486c157.257 0 285.257 128 285.257 285.257v453.486c0 157.257-128 285.257-285.257 285.257h-453.486zM852.114 846.629c32.914 0 58.514-25.6 58.514-58.514s-25.6-58.514-58.514-58.514c-32.914 0-58.514 25.6-58.514 58.514s29.257 58.514 58.514 58.514zM512 733.257c157.257 0 285.257-128 285.257-285.257s-128-285.257-285.257-285.257c-157.257 0-285.257 128-285.257 285.257s128 285.257 285.257 285.257zM512 619.886c-95.086 0-171.886-76.8-171.886-171.886s76.8-171.886 171.886-171.886c95.086 0 171.886 76.8 171.886 171.886s-76.8 171.886-171.886 171.886z" />
<glyph unicode="&#xe91c;" glyph-name="cart" d="M1018.245 804.414l-45.486-36.061h-726.281l-37.444 78.996h809.211v-42.935zM307.79 317.112l-2.166-8.663v-1.26c0-13.087 10.995-23.040 23.040-23.040h582.655v-81.92h-604.159c-50.664 0-92.16 41.498-92.16 92.16 0 16.164 4.157 31.304 11.452 44.073l71.727 130.17-189.343 399.197h-98.636v81.92h150.682l45.38-96.554 163.323-344.565 9.476-19.681h371.905l144.241 261.305 51.497 93.633 71.542-39.473-192.701-349.965c-15.642-28.522-46.024-47.42-80.625-47.42h-387.482l-49.647-89.917zM215.512 38.39c0 50.734 41.050 92.16 91.648 92.16 50.664 0 92.16-41.498 92.16-92.16s-41.496-92.16-92.16-92.16c-50.598 0-91.648 41.431-91.648 92.16zM727.511 38.39c0 50.734 41.052 92.16 91.648 92.16 50.668 0 92.16-41.498 92.16-92.16s-41.492-92.16-92.16-92.16c-50.596 0-91.648 41.431-91.648 92.16z" />
<glyph unicode="&#xe91d;" glyph-name="trash" d="M1018.245 804.414l-45.486-36.061h-726.281l-37.444 78.996h809.211v-42.935zM307.79 317.112l-2.166-8.663v-1.26c0-13.087 10.995-23.040 23.040-23.040h582.655v-81.92h-604.159c-50.664 0-92.16 41.498-92.16 92.16 0 16.164 4.157 31.304 11.452 44.073l71.727 130.17-189.343 399.197h-98.636v81.92h150.682l45.38-96.554 163.323-344.565 9.476-19.681h371.905l144.241 261.305 51.497 93.633 71.542-39.473-192.701-349.965c-15.642-28.522-46.024-47.42-80.625-47.42h-387.482l-49.647-89.917zM215.512 38.39c0 50.734 41.050 92.16 91.648 92.16 50.664 0 92.16-41.498 92.16-92.16s-41.496-92.16-92.16-92.16c-50.598 0-91.648 41.431-91.648 92.16zM727.511 38.39c0 50.734 41.052 92.16 91.648 92.16 50.668 0 92.16-41.498 92.16-92.16s-41.492-92.16-92.16-92.16c-50.596 0-91.648 41.431-91.648 92.16z" />
<glyph unicode="&#xe91e;" glyph-name="user" d="M0-64v176.922c0 150.113 332.398 246.62 509.319 246.62s514.681-91.146 514.681-246.62v-176.922h-1024zM509.319 279.122c-187.644 0-428.9-91.141-428.9-166.2v-96.502h863.161v96.502c0 69.699-230.533 166.2-434.261 166.2zM509.319 472.125c-134.031 0-241.256 107.225-241.256 246.618s107.225 241.256 241.256 241.256c134.029 0 246.618-112.586 246.618-241.256 0-139.393-107.223-246.618-246.618-246.618zM509.319 879.581c-85.78 0-160.838-75.058-160.838-160.838s75.058-160.838 160.838-160.838c91.139 0 166.198 75.058 166.198 160.838s-75.059 160.838-166.198 160.838z" />
<glyph unicode="&#xe91f;" glyph-name="favorite" d="M285.091 855.273c-144.409 0-261.818-118.773-261.818-261.818 0-49.909 22.636-93.137 43.636-124.364s42.545-51.271 42.545-51.271l402.546-403.638 25.093 25.093 377.451 378.545c0 0 86.184 75.953 86.184 175.635 0 143.045-117.411 261.818-261.818 261.818-119.864 0-197.046-72.136-226.909-102.545-29.864 30.409-107.045 102.545-226.909 102.545zM285.091 785.455c104.318 0 200.727-101.455 200.727-101.455l26.182-29.454 26.182 29.454c0 0 96.41 101.455 200.727 101.455 106.226 0 192-87.136 192-192 0-53.864-65.452-126.545-65.452-126.545l-353.457-353.455-353.455 353.455c0 0-16.909 16.227-33.818 41.455s-31.636 58.091-31.636 85.091c0 104.864 85.773 192 192 192z" />
<glyph unicode="&#xe920;" glyph-name="close" d="M135.558 894.275c-19.3 19.301-50.594 19.301-69.895 0s-19.301-50.594 0-69.895l376.432-376.429-376.432-376.43c-19.301-19.302-19.301-50.592 0-69.894s50.595-19.302 69.895 0l376.433 376.429 376.425-376.423c19.302-19.302 50.592-19.302 69.894 0s19.302 50.592 0 69.894l-376.424 376.424 376.424 376.422c19.302 19.301 19.302 50.594 0 69.895s-50.592 19.301-69.894 0l-376.425-376.422-376.433 376.429z" />
<glyph unicode="&#xe921;" glyph-name="arrow-up" horiz-adv-x="1877" d="M1717.333 48.333h-1706.667l853.333 852.182 853.333-852.182z" />
<glyph unicode="&#xe922;" glyph-name="order" horiz-adv-x="1229" d="M905.4 583.419l-244.641 353.922c-10.612 15.106-28.486 22.66-46.359 22.66s-35.747-7.553-46.359-23.199l-244.643-353.382h-267.543c-30.72 0-55.855-24.278-55.855-53.952 0-4.856 0.559-9.711 2.234-14.567l141.871-500.134c12.846-45.315 55.854-78.766 107.241-78.766h726.11c51.384 0 94.392 33.451 107.8 78.766l141.872 500.134 1.673 14.567c0 29.673-25.136 53.952-55.856 53.952h-267.544zM446.836 583.419l167.564 237.386 167.561-237.386h-335.124zM614.4 151.805c-61.44 0-111.709 48.558-111.709 107.902 0 59.349 50.269 107.905 111.709 107.905s111.712-48.556 111.712-107.905c0-59.344-50.272-107.902-111.712-107.902z" />
<glyph unicode="&#xe923;" glyph-name="pen" d="M0 149.307v-213.307h213.304l629.105 629.104-213.304 213.304-629.104-629.101zM1007.36 730.059c22.184 22.183 22.184 58.018 0 80.202l-133.098 133.102c-22.184 22.184-58.017 22.184-80.201 0l-104.094-104.092 213.304-213.304 104.090 104.093z" />
<glyph unicode="&#xe924;" glyph-name="visible" horiz-adv-x="1536" d="M1516.373 448c0-30.618-16.555-50.726-49.681-90.941-121.182-147.127-388.463-421.059-698.712-421.059s-577.531 273.932-698.712 421.059c-33.123 40.215-49.685 60.322-49.685 90.941s16.562 50.726 49.685 90.941c121.181 147.127 388.462 421.059 698.712 421.059s577.53-273.932 698.712-421.059c33.126-40.215 49.681-60.322 49.681-90.941zM767.98 192c141.383 0 256.003 114.615 256.003 256s-114.62 256-256.003 256c-141.385 0-256-114.615-256-256s114.615-256 256-256z" />
<glyph unicode="&#xe925;" horiz-adv-x="1065" d="M81.92 58.88v141.537c0 120.091 265.918 197.296 407.454 197.296s411.746-72.917 411.746-197.296v-141.537h-819.2zM489.374 333.378c-150.113 0-343.119-72.913-343.119-132.96v-77.201h690.529v77.201c0 55.759-184.426 132.96-347.41 132.96zM489.374 487.78c-107.223 0-193.004 85.78-193.004 197.294s85.78 193.005 193.004 193.005c107.225 0 197.296-90.069 197.296-193.005 0-111.514-85.778-197.294-197.296-197.294zM489.374 813.745c-68.62 0-128.668-60.046-128.668-128.67s60.048-128.67 128.668-128.67c72.913 0 132.96 60.046 132.96 128.67s-60.047 128.67-132.96 128.67z" />
<glyph unicode="&#xe926;" horiz-adv-x="1065" d="M1064.96 99.84c0-90.486-73.354-163.84-163.84-163.84s-163.84 73.354-163.84 163.84c0 90.486 73.354 163.84 163.84 163.84s163.84-73.354 163.84-163.84z" />
<glyph unicode="&#xe927;" glyph-name="arrow-down" horiz-adv-x="1463" d="M687.543-27.486l-687.543 687.543 204.8 204.8 482.743-482.743 482.743 482.743 204.8-204.8-687.543-687.543z" />
<glyph unicode="&#xe928;" glyph-name="out-of-stock" d="M0 448c0 282.624 229.376 512 512 512s512-229.376 512-512c0-282.624-229.376-512-512-512s-512 229.376-512 512zM281.6 512c-28.277 0-51.2-22.923-51.2-51.2v-25.6c0-28.278 22.923-51.2 51.2-51.2h460.8c28.278 0 51.2 22.922 51.2 51.2v25.6c0 28.277-22.922 51.2-51.2 51.2h-460.8z" />
<glyph unicode="&#xe929;" glyph-name="on-the-way" d="M511.488 960c-282.624 0-511.488-229.376-511.488-512s228.864-512 511.488-512c283.136 0 512.512 229.376 512.512 512s-229.376 512-512.512 512zM512 38.4c-226.304 0-409.6 183.296-409.6 409.6s183.296 409.6 409.6 409.6c226.304 0 409.6-183.296 409.6-409.6s-183.296-409.6-409.6-409.6zM537.6 704h-76.8v-307.2l268.8-161.28 38.4 62.976-230.4 136.704v268.8z" />
</font>
</defs>
</svg>
